Скачать через торрент СуперБобровы. Народные мстители Фильм бесплатно в хорошем качестве torrent

Скачивайте на UnionPeer.org фильмы через торрент без регистрации. Новинки кино в хорошем качестве через торрент. На UnionPeer.org можно скачать через торрент фильмы 2014 и 2015 годов. Самые новые фильмы.

Скачать торрент СуперБобровы. Народные мстители бесплатно через .torrent фильм мультфильм сериал

Статистика раздачи
Размер:  745 MB   |    Зарегистрирован:  1 месяц 9 дней   |    .torrent скачан:  55 раз   |   
Раздают:  1  
   
загрузка...
 
Автор Сообщение

Galfimbul

avatar Galfimbul


Год выпуска: 2017
Жанр: Комедия, семейный
Выпущено: Россия, KeyStone Production, Yellow, Black and White
Режиссер: Дмитрий Дьяченко
В ролях: Павел Деревянко, Роман Мадянов, Владимир Толоконников, Оксана Акиньшина, Ирина Пегова, Даниил Вахрушев, Елена Валюшкина, Роман Курцын, Стас Оксаний, Владимир Паршенков

О фильме: Действие картины начинается в Таиланде, где семья Бобровых скрылась от правосудия. Теперь им приходится выступать в цирке-шапито, демонстрируя туристам свои суперспособности. Быть «цирковыми обезьянками» семейству явно не по душе - все хотят домой, на Родину. У Олега и Светы разлад в отношениях: она мечтает о детях, а Олегу совсем не до этого. И вот очередной скандал семьи: Олег уходит, хлопнув дверью. Возвращается, а Бобровых нет. Они уехали. Олегу приходится отправиться в Россию. На родине ему предстоит не только вновь завоевать сердце Светы, но и объединить суперсилы семейства Бобровых в схватке со злодеями планетарного масштаба, сделав из нерадивых родственников настоящих супергероев.


Качество: WEB-DLRip
Видео: XviD build 73, 688x288 (2.40:1), 24.000 fps, 1301 Kbps (~ 0.217 bit/pixel)
Аудио: 48.0 kHz, MP3, 2/0 ch, 128 kbps
Продолжительность: 01:29:12
Перевод: Не требуется | iTunes
Cубтитры: нет
General
Complete name : D:RazdachiSuperbobrovy.2018.XviD.745Mb.WEB-DLRip.GeneralFilm.avi
Format : AVI
Format/Info : Audio Video Interleave
File size : 745 MiB
Duration : 1 h 29 min
Overall bit rate : 1 167 kb/s
Writing application : VirtualDubMod 1.5.10.3 | www.virtualdub-fr.org || (build 2550/release)
Writing library : VirtualDubMod build 2550/release

Video
ID : 0
Format : MPEG-4 Visual
Format profile : Advanced Simple@L5
Format settings, BVOP : 1
Format settings, QPel : No
Format settings, GMC : No warppoints
Format settings, Matrix : Custom
Codec ID : XVID
Codec ID/Hint : XviD
Duration : 1 h 29 min
Bit rate : 1 030 kb/s
Width : 688 pixels
Height : 288 pixels
Display aspect ratio : 2.40:1
Frame rate : 24.000 FPS
Color space : YUV
Chroma subsampling : 4:2:0
Bit depth : 8 bits
Scan type : Progressive
Compression mode : Lossy
Bits/(Pixel*Frame) : 0.217
Stream size : 657 MiB (88%)
Writing library : XviD 73

Audio
ID : 1
Format : MPEG Audio
Format version : Version 1
Format profile : Layer 3
Codec ID : 55
Codec ID/Hint : MP3
Duration : 1 h 29 min
Bit rate mode : Constant
Bit rate : 128 kb/s
Channel(s) : 2 channels
Sampling rate : 48.0 kHz
Compression mode : Lossy
Stream size : 81.7 MiB (11%)
Alignment : Aligned on interleaves
Interleave, duration : 42 ms (1.00 video frame)
Interleave, preload duratio : 504 ms
Writing library : LAME3.99r
Encoding settings : -m s -V 4 -q 2 -lowpass 17 -b 128
Релиз от:
Источник http://BlaTor.org

Трекер:  [ 07-Дек-2018 06:10 ]

  

Скачать .torrent

Размер .torrent файла 15 KB


Размер: 745 MB
Хэш (hash) релиза: 51f0bf45cd3362939f72038c33bb943323eb75e1
Подписка на обновления:

Торренты, похожие на СуперБобровы. Народные мстители скачать торрент

Форум Название Автор Размер S L Добавлен
Российские фильмы 2016-2018 (Новинки русского кино) ·%· СуперБобровы. Народные мстители (2018) WEB-DLRip-AVC от Generalfilm | iTunes Galfimbul 12383176331.15 GB 0 0 1544224913

02:21

8-Дек-18

Российские фильмы 2016-2018 (Новинки русского кино) ·%· СуперБобровы. Народные мстители (2018) WEB-DLRip-AVC от OlLanDGroup | iTunes Galfimbul 14934378551.39 GB 0 0 1544167272

10:21

7-Дек-18

Российские фильмы 2016-2018 (Новинки русского кино) ·%· СуперБобровы. Народные мстители (2017) WEB-DL 1080p | iTunes Galfimbul 32849984303.06 GB 0 0 1544137891

02:11

7-Дек-18

Российские фильмы 2016-2018 (Новинки русского кино) ·%· СуперБобровы. Народные мстители (2017) WEB-DLRip от Generalfilm | КПК | iTunes Galfimbul 355891213339 MB 0 0 1544134325

01:12

7-Дек-18

Российские фильмы 2016-2018 (Новинки русского кино) ·%· СуперБобровы. Народные мстители (2017) WEB-DL 720p | iTunes Galfimbul 29911818862.79 GB 0 0 1544116906

20:21

6-Дек-18

Российские фильмы 2016-2018 (Новинки русского кино) ·%· СуперБобровы. Народные мстители (2017) WEB-DLRip от MegaPeer | iTunes Galfimbul 15684218881.46 GB 0 0 1544088089

12:21

6-Дек-18

Еще никто не оставлял запись к записи скачать торрент СуперБобровы. Народные мстители . Будь первым!

!Обратная связь