Скачать через торрент Аксель A-X-L Фильм бесплатно в хорошем качестве torrent

Скачивайте на UnionPeer.org фильмы через торрент без регистрации. Новинки кино в хорошем качестве через торрент. На UnionPeer.org можно скачать через торрент фильмы 2014 и 2015 годов. Самые новые фильмы.

Скачать торрент Аксель A-X-L бесплатно через .torrent фильм мультфильм сериал

Статистика раздачи
Размер:  11.73 GB   |    Зарегистрирован:  14 дней   |    .torrent скачан:  157 раз   |   
Раздают:  1  
   
загрузка...
 
Автор Сообщение

Galfimbul

avatar Galfimbul


Информация о фильме
Аксель /A-X-L

Год выпуска: 2018
Жанр: фантастика, приключения, семейный
Режиссер: Оливер Дэйли
В ролях: Алекс Нюстадтер, Томас Джейн, Бекки Джи, Тед МакГинли, Лу Тейлор Пуччи, Амин Наземзадех, Нико Гуардадо, Эрик Этебари, Алекс МакНиколл, Дориан Кинги, Патрисия де Леон, Стэйси Арвен Рааб, Джонатан Кэмп, Сэм Аптон, Мадлен Бертани, Мелисса Вердуго, Эшли Гибсон, Доминик Веддер, Эндрю Ортенберг

О фильме: Юный мотоциклист Майлз случайно находит новую военную разработку - гигантскую собаку-робота по имени Аксель. Обладая искусственным интеллектом следующего поколения, но с огромным сердцем верного пса, Аксель быстро становится лучшим другом парня. Но военные не намерены просто так отказаться от металлического зверя, который превзошел в развитии их самые смелые ожидания. История настоящей дружбы и преданности вышла на новый технологический уровень, но вечные законы жизни остались прежними: ты всегда в ответе за тех, кого приручил.



Страна: США
Студия: Global Road Entertainment, Lakeshore Entertainment, Phantom Four Films
Продолжительность: 01:38:57
Перевод: Профессиональный (дублированный) iTunes

Файл
Формат: Matroska
Качество: BDRip 1080p
Видео: MPEG-4 AVC, 1920x800, 23.976 fps, 15100 kbps
Аудио RUS: AC3, 6 ch, 384 kbps
Аудио ENG: DTS, 6 ch, 1509 kbps
Субтитры: Английские

***Примечание: Без рекламы.
***Релиз: werecut PROD.
General
Unique ID : 140580193234290137327620654695564658993 (0x69C2C2A7DAEB1CD1E2025A65E7AB4931)
Complete name : F:.2018.bdriP.1080p.werecut.PROD..mkv
Format : Matroska
Format version : Version 4
File size : 11.7 GiB
Duration : 1 h 38 min
Overall bit rate : 17.0 Mb/s
Movie name : A-X-L 2018 werecut PROD.
Encoded date : UTC 2019-01-01 14:01:40
Writing application : mkvmerge v24.0.0 ('Beyond The Pale') 64-bit
Writing library : libebml v1.3.6 + libmatroska v1.4.9

Video
ID : 1
Format : AVC
Format/Info : Advanced Video Codec
Format profile : High@L4.1
Format settings : CABAC / 5 Ref Frames
Format settings, CABAC : Yes
Format settings, ReFrames : 5 frames
Codec ID : V_MPEG4/ISO/AVC
Duration : 1 h 38 min
Bit rate : 15.1 Mb/s
Width : 1 920 pixels
Height : 800 pixels
Display aspect ratio : 2.40:1
Frame rate mode : Constant
Frame rate : 23.976 (24000/1001) FPS
Color space : YUV
Chroma subsampling : 4:2:0
Bit depth : 8 bits
Scan type : Progressive
Bits/(Pixel*Frame) : 0.411
Stream size : 10.4 GiB (89%)
Title : A-X-L 2018 1080p BluRay DTS x264-DON
Writing library : x264 core 157 r2867+103 0d6443f t_mod_Custom_2 [8-bit@all X86_64]
Encoding settings : cabac=1 / ref=5 / deblock=1:-3:-3 / analyse=0x3:0x133 / me=umh / subme=10 / psy=1 / fade_compensate=0.00 / psy_rd=1.00:0.00 / mixed_ref=1 / me_range=32 / chroma_me=1 / trellis=2 / 8x8dct=1 / cqm=0 / deadzone=21,11 / fast_pskip=0 / chroma_qp_offset=-2 / threads=12 / lookahead_threads=2 / sliced_threads=0 / nr=0 / decimate=0 / interlaced=0 / bluray_compat=0 / constrained_intra=0 / fgo=0 / bframes=8 / b_pyramid=2 / b_adapt=2 / b_bias=0 / direct=3 / weightb=1 / open_gop=0 / weightp=2 / keyint=250 / keyint_min=23 / scenecut=40 / intra_refresh=0 / rc_lookahead=60 / rc=crf / mbtree=0 / crf=16.0000 / qcomp=0.65 / qpmin=0:0:0 / qpmax=69:69:69 / qpstep=4 / vbv_maxrate=62500 / vbv_bufsize=78125 / crf_max=0.0 / nal_hrd=none / filler=0 / ip_ratio=1.30 / pb_ratio=1.20 / aq=3:0.80 / aq-sensitivity=10.00 / aq-factor=1.00:1.00:1.00 / aq2=0 / aq3=0 / zones=1103,2813,crf=13/12470,12970,crf=14/15001,18320,crf=15.5/18321,18366,crf=14/18367,23867,crf=15.5/35291,35363,crf=14/36844,36972,crf=13/37820,37891,crf=14/37983,38011,crf=14/39630,39777,crf=14/40202,40417,crf=14/40730,40873,crf=14/41654,41911,crf=14/43930,44045,crf=13/46114,46277,crf=14/53133,53200,crf=13/56100,56538,crf=12/57596,64438,crf=15.5/71181,71278,crf=13/87957,88110,crf=13/88955,89049,crf=12/101490,101720,crf=13/111220,111358,crf=13/111501,111623,crf=13/113766,113825,crf=14/116723,116804,crf=13/122800,122855,crf=13/128300,130895,crf=13
Language : English
Default : Yes
Forced : No
Color range : Limited
Matrix coefficients : BT.709

Audio #1
ID : 2
Format : AC-3
Format/Info : Audio Coding 3
Commercial name : Dolby Digital
Codec ID : A_AC3
Duration : 1 h 38 min
Bit rate mode : Constant
Bit rate : 384 kb/s
Channel(s) : 6 channels
Channel layout : L R C LFE Ls Rs
Sampling rate : 48.0 kHz
Frame rate : 31.250 FPS (1536 SPF)
Bit depth : 16 bits
Compression mode : Lossy
Stream size : 271 MiB (2%)
Title : Dub iTunes
Language : Russian
Service kind : Complete Main
Default : Yes
Forced : No

Audio #2
ID : 3
Format : DTS
Format/Info : Digital Theater Systems
Codec ID : A_DTS
Duration : 1 h 38 min
Bit rate mode : Constant
Bit rate : 1 509 kb/s
Channel(s) : 6 channels
Channel layout : C L R Ls Rs LFE
Sampling rate : 48.0 kHz
Frame rate : 93.750 FPS (512 SPF)
Bit depth : 24 bits
Compression mode : Lossy
Stream size : 1.04 GiB (9%)
Language : English
Default : No
Forced : No

Text #1
ID : 4
Format : UTF-8
Codec ID : S_TEXT/UTF8
Codec ID/Info : UTF-8 Plain Text
Duration : 1 h 28 min
Bit rate : 48 b/s
Count of elements : 975
Stream size : 31.5 KiB (0%)
Language : English
Default : No
Forced : No

Text #2
ID : 5
Format : UTF-8
Codec ID : S_TEXT/UTF8
Codec ID/Info : UTF-8 Plain Text
Duration : 1 h 28 min
Bit rate : 56 b/s
Count of elements : 1210
Stream size : 36.4 KiB (0%)
Title : SDH
Language : English
Default : No
Forced : No

Menu
00:00:00.000 : en:Chapter 01
00:05:03.887 : en:Chapter 02
00:10:06.064 : en:Chapter 03
00:16:35.494 : en:Chapter 04
00:19:37.927 : en:Chapter 05
00:23:11.849 : en:Chapter 06
00:30:32.080 : en:Chapter 07
00:36:25.266 : en:Chapter 08
00:44:47.643 : en:Chapter 09
00:49:35.264 : en:Chapter 10
00:56:14.788 : en:Chapter 11
01:01:15.005 : en:Chapter 12
01:09:45.473 : en:Chapter 13
01:14:41.727 : en:Chapter 14
01:18:30.414 : en:Chapter 15
01:25:27.080 : en:Chapter 16
Источник http://BlaTor.org

Трекер:  [ 01-Янв-2019 17:40 ]

  

Скачать .torrent

Размер .torrent файла 118 KB


Размер: 11.73 GB
Хэш (hash) релиза: ef504ae7bf7a4b9bdae778c9cd563e494a0b32cb
Подписка на обновления:

Торренты, похожие на Аксель A-X-L скачать торрент

Форум Название Автор Размер S L Добавлен
Зарубежные фильмы 2016-2018 (Новинки зарубежного кино) ·%· Аксель / A-X-L (2018) BDRip-AVC от HELLYWOOD | iTunes Galfimbul 22938816732.14 GB 0 0 1547613009

07:30

16-Янв-19

Зарубежные фильмы 2016-2018 (Новинки зарубежного кино) ·%· Аксель / A-X-L (2018) BDRip-HEVC 1080p от M@kSIMus | iTunes Galfimbul 61566095665.73 GB 0 0 1547585427

23:50

15-Янв-19

Зарубежные фильмы 2016-2018 (Новинки зарубежного кино) ·%· Аксель / A-X-L (2018) BDRip-AVC от ExKinoRay | iTunes Galfimbul 15057495091.4 GB 0 0 1546839009

08:30

7-Янв-19

Зарубежные фильмы 2016-2018 (Новинки зарубежного кино) ·%· Аксель / A-X-L (2018) BDRip-AVC | iTunes Galfimbul 781601968745 MB 0 0 1546675212

11:00

5-Янв-19

Зарубежные фильмы 2016-2018 (Новинки зарубежного кино) ·%· Аксель / A-X-L (2018) BDRip 720р от k.e.n & MegaPeer | iTunes Galfimbul 39398614283.67 GB 0 0 1546536014

20:20

3-Янв-19

Зарубежные фильмы 2016-2018 (Новинки зарубежного кино) ·%· Аксель / A-X-L (2018) BDRip-HEVC 1080p | iTunes Galfimbul 42360044383.95 GB 0 0 1546525813

17:30

3-Янв-19

Зарубежные фильмы 2016-2018 (Новинки зарубежного кино) ·%· Аксель / A-X-L (2018) BDRip от ExKinoRay | iTunes Galfimbul 15221848601.42 GB 0 0 1546457410

22:30

2-Янв-19

Зарубежные фильмы 2016-2018 (Новинки зарубежного кино) ·%· Аксель / A-X-L (2018) HDRip от Generalfilm | КПК | iTunes Galfimbul 391815192374 MB 0 0 1546435208

16:20

2-Янв-19

Зарубежные фильмы 2016-2018 (Новинки зарубежного кино) ·%· Аксель / A-X-L (2018) BDRemux 1080p | iTunes Galfimbul 2744390507425.56 GB 0 0 1546341612

14:20

1-Янв-19

Зарубежные фильмы 2016-2018 (Новинки зарубежного кино) ·%· Аксель / A.X.L. (2018) BDRip от MegaPeer | iTunes Galfimbul 783779574747 MB 0 0 1546329616

11:00

1-Янв-19

Зарубежные фильмы 2016-2018 (Новинки зарубежного кино) ·%· Аксель / A.X.L. (2018) BDRip-AVC от OlLanDGroup | iTunes Galfimbul 19647387931.83 GB 0 0 1546292417

00:40

1-Янв-19

Зарубежные фильмы 2016-2018 (Новинки зарубежного кино) ·%· Аксель / A.X.L. (2018) BDRip от MegaPeer | iTunes Galfimbul 15207280641.42 GB 0 0 1546292407

00:40

1-Янв-19

Еще никто не оставлял запись к записи скачать торрент Аксель A-X-L . Будь первым!

!Обратная связь