Скачать через торрент Аксель A-X-L Фильм бесплатно в хорошем качестве torrent

Скачивайте на UnionPeer.org фильмы через торрент без регистрации. Новинки кино в хорошем качестве через торрент. На UnionPeer.org можно скачать через торрент фильмы 2014 и 2015 годов. Самые новые фильмы.

Скачать торрент Аксель A-X-L бесплатно через .torrent фильм мультфильм сериал

Статистика раздачи
Размер:  3.95 GB   |    Зарегистрирован:  12 дней   |    .torrent скачан:  68 раз   |   
Раздают:  1  
   
загрузка...
 
Автор Сообщение

Galfimbul

avatar Galfimbul


Аксель /A-X-L

Год выхода: 2018
Жанр: фантастика, приключения, семейный
Режиссер: Оливер Дэйли
В ролях: Алекс Нюстадтер, Томас Джейн, Бекки Джи, Тед МакГинли, Лу Тейлор Пуччи, Амин Наземзадех, Нико Гуардадо, Эрик Этебари, Алекс МакНиколл, Дориан Кинги, Патрисия де Леон, Стэйси Арвен Рааб, Джонатан Кэмп, Сэм Аптон, Мадлен Бертани, Мелисса Вердуго, Эшли Гибсон, Доминик Веддер, Эндрю Ортенберг

О фильме:
Юный мотоциклист Майлз случайно находит новую военную разработку - гигантскую собаку-робота по имени Аксель. Обладая искусственным интеллектом следующего поколения, но с огромным сердцем верного пса, Аксель быстро становится лучшим другом парня. Но военные не намерены просто так отказаться от металлического зверя, который превзошел в развитии их самые смелые ожидания. История настоящей дружбы и преданности вышла на новый технологический уровень, но вечные законы жизни остались прежними: ты всегда в ответе за тех, кого приручил.



Страна: США
Студия: Global Road Entertainment, Lakeshore Entertainment, Phantom Four Films
Продолжительность: 01:38:57
Перевод: Дублированный (iTunes)

Файл
Качество: BDRip 1080p-HEVC
Видео: HEVC/H.265, 1920x800, ~5229 Kbps
Звук: AC3, 6 ch, 384 Kbps Дублированный (iTunes)
Субтитры: нет
General
Unique ID : 106469668144411425412059554866869955385 (0x50194FECA7DBD1FD3D3EB46AF3FDEB39)
Complete name : E:A-X-L (2018) BDRip 1080p [HEVC] 10bit.mkv
Format : Matroska
Format version : Version 4
File size : 3.95 GiB
Duration : 1 h 38 min
Overall bit rate : 5 727 kb/s
Movie name : Аксель
Writing application : XviD4PSP 7.0.461 DAILY
Writing library : Lavf57.71.100
ErrorDetectionType : Per level 1
Attachments : poster.jpg
ACTORS : Алекс Нюстадтер, Бекки Джи,
COUNTRY : США
DATE : 2018
DIRECTOR : Оливер Дэйли
ENCODING_INFO : MATROSKA,WEBM > MKV 1080p 10-bit / H264 > X265 CRF 18.0 Medium / AC3 > AC3 CBR 384kbps
GENRE : фантастика, боевик, приключения
HD_VIDEO : 1
Language : und
MEDIA_TYPE : 9
ORIGINAL_TITLE : A-X-L

Video
ID : 1
Format : HEVC
Format/Info : High Efficiency Video Coding
Format profile : Main 10@L4.1@High
Codec ID : V_MPEGH/ISO/HEVC
Duration : 1 h 38 min
Bit rate : 5 229 kb/s
Width : 1 920 pixels
Height : 800 pixels
Display aspect ratio : 2.40:1
Frame rate mode : Constant
Frame rate : 23.976 (24000/1001) FPS
Color space : YUV
Chroma subsampling : 4:2:0
Bit depth : 10 bits
Bits/(Pixel*Frame) : 0.142
Stream size : 3.60 GiB (91%)
Writing library : x265 2.9+9-f74003e88622:[Windows][GCC 7.3.0][64 bit] 10bit
Encoding settings : cpuid=1111039 / frame-threads=13 / numa-pools=12 / wpp / no-pmode / no-pme / no-psnr / no-ssim / log-level=3 / input-csp=1 / input-res=1920x800 / interlace=0 / total-frames=0 / level-idc=41 / high-tier=1 / uhd-bd=0 / ref=5 / allow-non-conformance / no-repeat-headers / annexb / no-aud / no-hrd / info / hash=0 / no-temporal-layers / no-open-gop / min-keyint=24 / keyint=240 / gop-lookahead=0 / bframes=7 / b-adapt=2 / b-pyramid / bframe-bias=0 / rc-lookahead=40 / lookahead-slices=5 / scenecut=40 / radl=0 / no-intra-refresh / ctu=64 / min-cu-size=8 / rect / amp / max-tu-size=32 / tu-inter-depth=1 / tu-intra-depth=1 / limit-tu=0 / rdoq-level=0 / dynamic-rd=0.00 / no-ssim-rd / signhide / no-tskip / nr-intra=0 / nr-inter=0 / no-constrained-intra / no-strong-intra-smoothing / max-merge=2 / limit-refs=3 / no-limit-modes / me=3 / subme=7 / merange=57 / temporal-mvp / weightp / no-weightb / no-analyze-src-pics / deblock=-3:-3 / no-sao / no-sao-non-deblock / rd=3 / no-early-skip / rskip / no-fast-intra / no-tskip-fast / no-cu-lossless / no-b-intra / no-splitrd-skip / rdpenalty=0 / psy-rd=2.00 / psy-rdoq=0.00 / no-rd-refine / no-lossless / cbqpoffs=0 / crqpoffs=0 / rc=crf / crf=18.0 / qcomp=0.70 / qpstep=4 / stats-write=0 / stats-read=0 / vbv-maxrate=50000 / vbv-bufsize=50000 / vbv-init=0.9 / crf-max=0.0 / crf-min=0.0 / ipratio=1.40 / pbratio=1.30 / aq-mode=1 / aq-strength=1.00 / cutree / zone-count=0 / no-strict-cbr / qg-size=32 / no-rc-grain / qpmax=69 / qpmin=0 / no-const-vbv / sar=1 / overscan=0 / videoformat=5 / range=0 / colorprim=1 / transfer=1 / colormatrix=1 / chromaloc=0 / display-window=0 / max-cll=0,0 / min-luma=0 / max-luma=1023 / log2-max-poc-lsb=8 / vui-timing-info / vui-hrd-info / slices=1 / no-opt-qp-pps / no-opt-ref-list-length-pps / no-multi-pass-opt-rps / scenecut-bias=0.05 / no-opt-cu-delta-qp / no-aq-motion / no-hdr / no-hdr-opt / no-dhdr10-opt / no-idr-recovery-sei / analysis-reuse-level=5 / scale-factor=0 / refine-intra=0 / refine-inter=0 / refine-mv=0 / no-limit-sao / ctu-info=0 / no-lowpass-dct / refine-mv-type=0 / copy-pic=1 / max-ausize-factor=1.0 / no-dynamic-refine / no-single-sei
Language : English
Default : Yes
Forced : No
Color range : Limited
Color primaries : BT.709
Transfer characteristics : BT.709
Matrix coefficients : BT.709

Audio
ID : 2
Format : AC-3
Format/Info : Audio Coding 3
Commercial name : Dolby Digital
Codec ID : A_AC3
Duration : 1 h 38 min
Bit rate mode : Constant
Bit rate : 384 kb/s
Channel(s) : 6 channels
Channel layout : L R C LFE Ls Rs
Sampling rate : 48.0 kHz
Frame rate : 31.250 FPS (1536 SPF)
Bit depth : 16 bits
Compression mode : Lossy
Stream size : 271 MiB (7%)
Title : iTunes
Language : Russian
Service kind : Complete Main
Default : Yes
Forced : No

Menu
00:00:00.000 : :Chapter 1
00:05:03.886 : :Chapter 2
00:10:06.063 : :Chapter 3
00:16:35.494 : :Chapter 4
00:19:37.926 : :Chapter 5
00:23:11.848 : :Chapter 6
00:30:32.080 : :Chapter 7
00:36:25.266 : :Chapter 8
00:44:47.643 : :Chapter 9
00:49:35.263 : :Chapter 10
00:56:14.788 : :Chapter 11
01:01:15.004 : :Chapter 12
01:09:45.471 : :Chapter 13
01:14:41.727 : :Chapter 14
01:18:30.414 : :Chapter 15
01:25:27.080 : :Chapter 16
Релиз от: HANNIBAL
Источник http://BlaTor.org

Трекер:  [ 03-Янв-2019 17:30 ]

  

Скачать .torrent

Размер .torrent файла 20 KB


Размер: 3.95 GB
Хэш (hash) релиза: 154c640d3a301130971363d8895e4148a6d6cbdd
Подписка на обновления:

Торренты, похожие на Аксель A-X-L скачать торрент

Форум Название Автор Размер S L Добавлен
Зарубежные фильмы 2016-2018 (Новинки зарубежного кино) ·%· Аксель / A-X-L (2018) BDRip-AVC от HELLYWOOD | iTunes Galfimbul 22938816732.14 GB 0 0 1547613009

07:30

16-Янв-19

Зарубежные фильмы 2016-2018 (Новинки зарубежного кино) ·%· Аксель / A-X-L (2018) BDRip-HEVC 1080p от M@kSIMus | iTunes Galfimbul 61566095665.73 GB 0 0 1547585427

23:50

15-Янв-19

Зарубежные фильмы 2016-2018 (Новинки зарубежного кино) ·%· Аксель / A-X-L (2018) BDRip-AVC от ExKinoRay | iTunes Galfimbul 15057495091.4 GB 0 0 1546839009

08:30

7-Янв-19

Зарубежные фильмы 2016-2018 (Новинки зарубежного кино) ·%· Аксель / A-X-L (2018) BDRip-AVC | iTunes Galfimbul 781601968745 MB 0 0 1546675212

11:00

5-Янв-19

Зарубежные фильмы 2016-2018 (Новинки зарубежного кино) ·%· Аксель / A-X-L (2018) BDRip 720р от k.e.n & MegaPeer | iTunes Galfimbul 39398614283.67 GB 0 0 1546536014

20:20

3-Янв-19

Зарубежные фильмы 2016-2018 (Новинки зарубежного кино) ·%· Аксель / A-X-L (2018) BDRip от ExKinoRay | iTunes Galfimbul 15221848601.42 GB 0 0 1546457410

22:30

2-Янв-19

Зарубежные фильмы 2016-2018 (Новинки зарубежного кино) ·%· Аксель / A-X-L (2018) HDRip от Generalfilm | КПК | iTunes Galfimbul 391815192374 MB 0 0 1546435208

16:20

2-Янв-19

Зарубежные фильмы 2016-2018 (Новинки зарубежного кино) ·%· Аксель / A-X-L (2018) BDRip 1080p | iTunes Galfimbul 1259972976111.73 GB 0 0 1546353613

17:40

1-Янв-19

Зарубежные фильмы 2016-2018 (Новинки зарубежного кино) ·%· Аксель / A-X-L (2018) BDRemux 1080p | iTunes Galfimbul 2744390507425.56 GB 0 0 1546341612

14:20

1-Янв-19

Зарубежные фильмы 2016-2018 (Новинки зарубежного кино) ·%· Аксель / A.X.L. (2018) BDRip от MegaPeer | iTunes Galfimbul 783779574747 MB 0 0 1546329616

11:00

1-Янв-19

Зарубежные фильмы 2016-2018 (Новинки зарубежного кино) ·%· Аксель / A.X.L. (2018) BDRip-AVC от OlLanDGroup | iTunes Galfimbul 19647387931.83 GB 0 0 1546292417

00:40

1-Янв-19

Зарубежные фильмы 2016-2018 (Новинки зарубежного кино) ·%· Аксель / A.X.L. (2018) BDRip от MegaPeer | iTunes Galfimbul 15207280641.42 GB 0 0 1546292407

00:40

1-Янв-19

Еще никто не оставлял запись к записи скачать торрент Аксель A-X-L . Будь первым!

!Обратная связь